Collide (2016 1080p Blu-Ray X264 DTSHD-MA 5.1 -DDR

Torrent Details

Collide (2016 1080p Blu-Ray x264 DTSHD-MA 5.1 -DDR

NAME
Collide (2016 1080p Blu-Ray x264 DTSHD-MA 5.1 -DDR.torrent
CATEGORY
Movies
INFOHASH
f260893574091200c91eb56fa43730e58d9cef34
SIZE
8.6 GB in 3 files
ADDED
Uploaded on 11-01-2017 by our crawler pet called "Spidey".
SWARM
140 seeders & 76 peers
RATING
No votes yet.

Please login to vote for this torrent.


Description




HQ 1080p Blu-Ray Rip x264

English DTSHD-MA 5.1 Audio

SCREENSHOTS


SPECS


Source: Blu-ray BD50

Format : Matroska
File size : 8.59 GiB
Duration : 1 h 38 min
Overall bit rate : 12.5 Mb/s

Video
Format : AVC
Format/Info : Advanced Video Codec
Format profile : [email protected]/* */
Format settings, CABAC : Yes
Format settings, ReFrames : 5 frames
Codec ID : V_MPEG4/ISO/AVC
Duration : 1 h 38 min
Bit rate : 10 000 kb/s
Width : 1 920 pixels
Height : 800 pixels
Display aspect ratio : 2.40:1
Frame rate mode : Constant
Frame rate : 23.976 (24000/1001) FPS
Color space : YUV
Chroma subsampling : 4:2:0
Bit depth : 8 bits
Scan type : Progressive
Bits/(Pixel*Frame) : 0.272
Stream size : 6.90 GiB (80%)
Default : Yes
Forced : No
Color range : Limited
Color primaries : BT.709
Transfer characteristics : BT.709
Matrix coefficients : BT.709

Audio #1
Format : DTS
Format/Info : Digital Theater Systems
Format profile : MA / Core
Mode : 16
Format settings, Endianness : Big
Codec ID : A_DTS
Duration : 1 h 38 min
Bit rate mode : Variable / Constant
Bit rate : 2 454 kb/s / 1 509 kb/s
Channel(s) : 6 channels
Channel positions : Front: L C R, Side: L R, LFE
Sampling rate : 48.0 kHz
Frame rate : 93.750 FPS (512 spf)
Bit depth : 16 bits
Compression mode : Lossless / Lossy
Stream size : 1.69 GiB (20%)
Language : English
Default : Yes
Forced : No

Chapters : YES

SAMPLE Included

A DDR Exclusive Encode

Discussion

Comments 0

Post Your Comment

Files in this torrent

FILENAMESIZE
A DDR Release !!!.txt287 B
Collide (2016 1080p Blu-Ray x264 DTSHD-MA 5.1 -DDR.mkv8.6 GB
sample-Collide (2016 1080p Blu-Ray x264 DTSHD-MA 5.1 -DDR.mkv28.5 MB
.