Lady Bloodfight (2016)1080p Blu-Ray X264 DTSHD 5.1 -DDR

Torrent Details

Lady Bloodfight (2016)1080p Blu-Ray x264 DTSHD 5.1 -DDR

NAME
Lady Bloodfight (2016)1080p Blu-Ray x264 DTSHD 5.1 -DDR.torrent
CATEGORY
Movies
INFOHASH
4b34faa2094a791a54a9f7d0b5702eaf2f9d0d18
SIZE
9.3 GB in 3 files
ADDED
Uploaded on 11-01-2017 by our crawler pet called "Spidey".
SWARM
165 seeders & 115 peers
RATING
No votes yet.

Please login to vote for this torrent.


Description




HQ 1080p Blu-Ray Rip x264

English DTSHD-MA 5.1 Audio

Danish/Finish/Norwegian/Swedish Subs

SCREENSHOTS


SPECS


Source: Blu-ray

Format : Matroska
File size : 9.29 GiB
Duration : 1 h 36 min
Overall bit rate : 13.8 Mb/s

Video
Format : AVC
Format/Info : Advanced Video Codec
Format profile : [email protected]/* */
Format settings, CABAC : Yes
Format settings, ReFrames : 5 frames
Codec ID : V_MPEG4/ISO/AVC
Duration : 1 h 36 min
Bit rate : 10.0 Mb/s
Width : 1 920 pixels
Height : 800 pixels
Display aspect ratio : 2.40:1
Frame rate mode : Constant
Frame rate : 25.000 FPS
Color space : YUV
Chroma subsampling : 4:2:0
Bit depth : 8 bits
Scan type : Progressive
Bits/(Pixel*Frame) : 0.260
Stream size : 6.74 GiB (72%)
Default : Yes
Forced : No
Color range : Limited
Color primaries : BT.709
Transfer characteristics : BT.709
Matrix coefficients : BT.709

Audio #1
Format : DTS
Format/Info : Digital Theater Systems
Format profile : MA / Core
Mode : 16
Format settings, Endianness : Big
Codec ID : A_DTS
Duration : 1 h 36 min
Bit rate mode : Variable / Constant
Bit rate : 3 722 kb/s / 1 509 kb/s
Channel(s) : 6 channels
Channel positions : Front: L C R, Side: L R, LFE
Sampling rate : 48.0 kHz
Frame rate : 93.750 FPS (512 spf)
Bit depth : 24 bits
Compression mode : Lossless / Lossy
Stream size : 2.51 GiB (27%)
Language : English
Default : Yes
Forced : No

Chapters : YES

SAMPLE Included

A DDR Exclusive Encode

Discussion

Comments 0

Post Your Comment

Files in this torrent

FILENAMESIZE
A DDR Release !!!.txt287 B
Lady Bloodfight (2016)1080p Blu-Ray x264 DTSHD 5.1 -DDR.mkv9.3 GB
sample-Lady Bloodfight (2016)1080p Blu-Ray x264 DTSHD 5.1 -DDR.mkv46.8 MB
.